Warcraft-The Beginning 2016 TrueHD Atmos HEVC-d3g.[PRiME]

Warcraft-The Beginning 2016 TrueHD Atmos HEVC-d3g.[PRiME]
Size: 5.77 GB
Language: English
Category: Movies
Online Views: 49
Uploader: Simmoncelli

Now Quickly and Easily Watch Warcraft-The Beginning 2016 TrueHD Atmos HEVC-d3g.[PRiME] on your PC, Mobile and all other devices. Warcraft-The Beginning 2016 TrueHD Atmos HEVC-d3g.[PRiME] Watch Links at Bottom. Watch Torrent Movie

Watch Torrent Description





Warcraft-The Beginning 2016 TrueHD Atmos HEVC-d3g.

ImDb: http://www.imdb.com/title/tt0803096



Complete name                            : Warcraft-The Beginning 2016 BluRay 1080p AC-3 TrueHD-7.1 Atmos HEVC-d3g.mkv
Format                                   : Matroska
Format version                           : Version 4 / Version 2
File size                                : 5.77 GiB
Duration                                 : 2 h 3 min
Overall bit rate mode                    : Variable
Overall bit rate                         : 6 706 kb/s
Movie name                               : Warcraft-The Beginning 2016 BluRay 1080p AC-3 TrueHD-7.1 Atmos HEVC-d3g
Encoded date                             : UTC 2017-03-28 15:51:28
Writing application                      : DVDFab 10.0.2.9
Writing library                          : libebml v1.3.4 + libmatroska v1.4.5

Video
ID                                       : 1
Format                                   : HEVC
Format/Info                              : High Efficiency Video Coding
Format profile                           : @Main
Codec ID                                 : V_MPEGH/ISO/HEVC
Duration                                 : 2 h 3 min
Bit rate                                 : 1 796 kb/s
Width                                    : 1 920 pixels
Height                                   : 792 pixels
Display aspect ratio                     : 2.40:1
Frame rate mode                          : Constant
Frame rate                               : 23.976 (24000/1001) FPS
Color space                              : YUV
Chroma subsampling                       : 4:2:0
Bit depth                                : 8 bits
Bits/(Pixel*Frame)                       : 0.049
Stream size                              : 1.54 GiB (27%)
Default                                  : Yes
Forced                                   : No

Audio
ID                                       : 2
Format                                   : Atmos / TrueHD
Codec ID                                 : A_TRUEHD
Duration                                 : 2 h 3 min
Bit rate mode                            : Variable
Bit rate                                 : 4 835 kb/s
Maximum bit rate                         : 7 893 kb/s
Channel(s)                               : Object Based / 8 channels
Channel positions                        : Object Based / Front: L C R, Side: L R, Back: L R, LFE
Sampling rate                            :  / 48.0 kHz
Frame rate                               : 1 200.000 FPS (40 spf)
Compression mode                         : Lossless
Stream size                              : 4.16 GiB (72%)
Language                                 : English
Default                                  : Yes
Forced                                   : No

Text
ID                                       : 3
Format                                   : VobSub
Codec ID                                 : S_VOBSUB
Codec ID/Info                            : Picture based subtitle format used on DVDs
Duration                                 : 1 h 53 min
Bit rate                                 : 7 544 b/s
Count of elements                        : 1394
Stream size                              : 6.14 MiB (0%)
Language                                 : English
Default                                  : No
Forced                                   : No

Menu
00:00:00.000                             : en:(01)00:00:00:000
00:09:26.482                             : en:(02)00:09:26:482
00:15:49.406                             : en:(03)00:15:49:406
00:22:36.146                             : en:(04)00:22:36:146
00:29:16.171                             : en:(05)00:29:16:171
00:38:43.321                             : en:(06)00:38:43:321
00:46:44.092                             : en:(07)00:46:44:092
00:53:02.679                             : en:(08)00:53:02:679
00:56:17.332                             : en:(09)00:56:17:332
01:02:43.926                             : en:(10)01:02:43:926
01:07:48.314                             : en:(11)01:07:48:314
01:12:24.548                             : en:(12)01:12:24:548
01:17:13.045                             : en:(13)01:17:13:045
01:22:45.669                             : en:(14)01:22:45:669
01:26:32.145                             : en:(15)01:26:32:145
01:32:29.669                             : en:(16)01:32:29:669
01:40:25.102                             : en:(17)01:40:25:102
01:47:38.118                             : en:(18)01:47:38:118
01:51:12.832                             : en:(19)01:51:12:832
01:53:58.832                             : en:(20)01:53:58:832




Click Image To View Full Size


Click To View Screenshot
Click To View Screenshot
Click To View Screenshot

Watch Torrent Server Links Here (Total 25)




Server 1 Openload:

Watch Full Movie Warcraft-The Beginning 2016 TrueHD Atmos HEVC-d3g.[PRiME] Online on Openload


Server 2 Vidto:

Watch Full Movie Warcraft-The Beginning 2016 TrueHD Atmos HEVC-d3g.[PRiME] Online on Vidto


Server 3 Streamin:

Watch Full Movie Warcraft-The Beginning 2016 TrueHD Atmos HEVC-d3g.[PRiME] Online on Streamin


Server 4 Nowvideo:

Watch Full Movie Warcraft-The Beginning 2016 TrueHD Atmos HEVC-d3g.[PRiME] Online on Nowvideo


Server 4 Thevideo:

Watch Full Movie Warcraft-The Beginning 2016 TrueHD Atmos HEVC-d3g.[PRiME] Online on Thevideo


Server 5 letwatch:

Watch Full Movie Warcraft-The Beginning 2016 TrueHD Atmos HEVC-d3g.[PRiME] Online on letwatch


Server 6 youwatch:

Watch Full Movie Warcraft-The Beginning 2016 TrueHD Atmos HEVC-d3g.[PRiME] Online on youwatch


Server 7 flashx:

Watch Full Movie Warcraft-The Beginning 2016 TrueHD Atmos HEVC-d3g.[PRiME] Online on flashx


Server 8 rapidvideo:

Watch Full Movie Warcraft-The Beginning 2016 TrueHD Atmos HEVC-d3g.[PRiME] Online on rapidvideo


Server 9 kingfiles:

Watch Full Movie Warcraft-The Beginning 2016 TrueHD Atmos HEVC-d3g.[PRiME] Online on kingfiles


Server 10 vidabc:

Watch Full Movie Warcraft-The Beginning 2016 TrueHD Atmos HEVC-d3g.[PRiME] Online on vidabc


Server 11 vidtodo:

Watch Full Movie Warcraft-The Beginning 2016 TrueHD Atmos HEVC-d3g.[PRiME] Online on vidtodo


Server 12 wholecloud:

Watch Full Movie Warcraft-The Beginning 2016 TrueHD Atmos HEVC-d3g.[PRiME] Online on wholecloud


Server 13 vidgg:

Watch Full Movie Warcraft-The Beginning 2016 TrueHD Atmos HEVC-d3g.[PRiME] Online on vidgg


Server 14 auroravid:

Watch Full Movie Warcraft-The Beginning 2016 TrueHD Atmos HEVC-d3g.[PRiME] Online on auroravid


Server 15 goodvideohos:

Watch Full Movie Warcraft-The Beginning 2016 TrueHD Atmos HEVC-d3g.[PRiME] Online on goodvideohos


Server 16 watchers:

Watch Full Movie Warcraft-The Beginning 2016 TrueHD Atmos HEVC-d3g.[PRiME] Online on watchers


Server 17 powvideo:

Watch Full Movie Warcraft-The Beginning 2016 TrueHD Atmos HEVC-d3g.[PRiME] Online on powvideo


Server 18 streamplay:

Watch Full Movie Warcraft-The Beginning 2016 TrueHD Atmos HEVC-d3g.[PRiME] Online on streamplay


Server 19 vidbull:

Watch Full Movie Warcraft-The Beginning 2016 TrueHD Atmos HEVC-d3g.[PRiME] Online on vidbull


Server 20 cloudtime:

Watch Full Movie Warcraft-The Beginning 2016 TrueHD Atmos HEVC-d3g.[PRiME] Online on cloudtime


Server 21 vidup:

Watch Full Movie Warcraft-The Beginning 2016 TrueHD Atmos HEVC-d3g.[PRiME] Online on vidup


Server 22 vshare:

Watch Full Movie Warcraft-The Beginning 2016 TrueHD Atmos HEVC-d3g.[PRiME] Online on vshare


Server 23 vodlock:

Watch Full Movie Warcraft-The Beginning 2016 TrueHD Atmos HEVC-d3g.[PRiME] Online on vodlock


Server 24 vidlox:

Watch Full Movie Warcraft-The Beginning 2016 TrueHD Atmos HEVC-d3g.[PRiME] Online on vidlox


Server 25 bitvid :

Watch Full Movie Warcraft-The Beginning 2016 TrueHD Atmos HEVC-d3g.[PRiME] Online on bitvid



Torrent Warcraft-The Beginning 2016 TrueHD Atmos HEVC-d3g.[PRiME] Download:


Warcraft-The Beginning 2016 TrueHD Atmos HEVC-d3g.[PRiME] :