Warcraft (2016) HQ 1080p Blu-ray x264 Dolby ATMOS 7 1-EN + AC3 F

Warcraft (2016) HQ 1080p Blu-ray x264 Dolby ATMOS 7 1-EN + AC3 F
Size: 14.11 GB
Language:
Category: Video
Online Views: 105
Uploader: admin

Now Quickly and Easily Watch Warcraft (2016) HQ 1080p Blu-ray x264 Dolby ATMOS 7 1-EN + AC3 F on your PC, Mobile and all other devices. Warcraft (2016) HQ 1080p Blu-ray x264 Dolby ATMOS 7 1-EN + AC3 F Watch Links at Bottom. Watch Torrent Movie

Watch Torrent Description



Torrent Description



HQ 1080p Blu-ray Rip x264        English Dolby Atmos 7.1 Audio    Français DDS AC3 5.1 Audio          English, Hindi & All European + SDH & Forced Subtitles     http://extraimago.com/image/wlNP  http://extraimago.com/image/wlNG  http://extraimago.com/image/wlNr  http://extraimago.com/image/wlNp  http://extraimago.com/image/wlNY  http://extraimago.com/image/wlNC  http://extraimago.com/image/wlNB  http://extraimago.com/image/wlN4  http://extraimago.com/image/wlNe  http://extraimago.com/image/wlNZ  http://extraimago.com/image/wlNK  http://extraimago.com/image/wlNJ  http://extraimago.com/image/wlN0  http://extraimago.com/image/wlNz    Specs:  Source: BD50 @ IPT    Format : Matroska  File size : 14.0 GiB  Duration : 2 h 3 min  Overall bit rate mode : Variable  Overall bit rate : 16.3 Mb/s    Video  Format : AVC  Format/Info : Advanced Video Codec  Format profile : [email protected]  Format settings, CABAC : Yes  Format settings, ReFrames : 5 frames  Codec ID : V_MPEG4/ISO/AVC  Duration : 2 h 3 min  Bit rate : 10 000 kb/s  Width : 1 912 pixels  Height : 792 pixels  Display aspect ratio : 2.40:1  Frame rate mode : Constant  Frame rate : 23.976 (24000/1001) FPS  Color space : YUV  Chroma subsampling : 4:2:0  Bit depth : 8 bits  Scan type : Progressive  Bits/(Pixel*Frame) : 0.275  Stream size : 8.60 GiB (61%)    Audio #1  ID : 2  Format : Atmos / TrueHD  Codec ID : A_TRUEHD  Duration : 2 h 3 min  Bit rate mode : Variable  Bit rate : 4 834 kb/s  Maximum bit rate : 7 893 kb/s  Channel(s) : Object Based / 8 channels  Channel positions : Object Based / Front: L C R, Side: L R, Back: L R, LFE  Sampling rate : / 48.0 kHz  Frame rate : 1 200.000 FPS (40 spf)  Compression mode : Lossless  Stream size : 4.16 GiB (30%)  Language : English  Default : Yes  Forced : No    Audio #2  ID : 3  Format : AC-3  Format/Info : Audio Coding 3  Mode extension : CM (complete main)  Format settings, Endianness : Big  Codec ID : A_AC3  Duration : 2 h 3 min  Bit rate mode : Constant  Bit rate : 640 kb/s  Channel(s) : 6 channels  Channel positions : Front: L C R, Side: L R, LFE  Sampling rate : 48.0 kHz  Frame rate : 31.250 FPS (1536 spf)  Compression mode : Lossy  Stream size : 564 MiB (4%)  Language : English  Default : No  Forced : No    Audio #3  ID : 4  Format : AC-3  Format/Info : Audio Coding 3  Mode extension : CM (complete main)  Format settings, Endianness : Big  Codec ID : A_AC3  Duration : 2 h 3 min  Bit rate mode : Constant  Bit rate : 640 kb/s  Channel(s) : 6 channels  Channel positions : Front: L C R, Side: L R, LFE  Sampling rate : 48.0 kHz  Frame rate : 31.250 FPS (1536 spf)  Compression mode : Lossy  Stream size : 564 MiB (4%)  Language : French  Default : No  Forced : No      Chapters = YES


Watch Torrent Server Links Here (Total 25)




Server 1 Openload:

Watch Full Movie Warcraft (2016) HQ 1080p Blu-ray x264 Dolby ATMOS 7 1-EN + AC3 F Online on Openload


Server 2 Vidto:

Watch Full Movie Warcraft (2016) HQ 1080p Blu-ray x264 Dolby ATMOS 7 1-EN + AC3 F Online on Vidto


Server 3 Streamin:

Watch Full Movie Warcraft (2016) HQ 1080p Blu-ray x264 Dolby ATMOS 7 1-EN + AC3 F Online on Streamin


Server 4 Nowvideo:

Watch Full Movie Warcraft (2016) HQ 1080p Blu-ray x264 Dolby ATMOS 7 1-EN + AC3 F Online on Nowvideo


Server 4 Thevideo:

Watch Full Movie Warcraft (2016) HQ 1080p Blu-ray x264 Dolby ATMOS 7 1-EN + AC3 F Online on Thevideo


Server 5 letwatch:

Watch Full Movie Warcraft (2016) HQ 1080p Blu-ray x264 Dolby ATMOS 7 1-EN + AC3 F Online on letwatch


Server 6 youwatch:

Watch Full Movie Warcraft (2016) HQ 1080p Blu-ray x264 Dolby ATMOS 7 1-EN + AC3 F Online on youwatch


Server 7 flashx:

Watch Full Movie Warcraft (2016) HQ 1080p Blu-ray x264 Dolby ATMOS 7 1-EN + AC3 F Online on flashx


Server 8 rapidvideo:

Watch Full Movie Warcraft (2016) HQ 1080p Blu-ray x264 Dolby ATMOS 7 1-EN + AC3 F Online on rapidvideo


Server 9 kingfiles:

Watch Full Movie Warcraft (2016) HQ 1080p Blu-ray x264 Dolby ATMOS 7 1-EN + AC3 F Online on kingfiles


Server 10 vidabc:

Watch Full Movie Warcraft (2016) HQ 1080p Blu-ray x264 Dolby ATMOS 7 1-EN + AC3 F Online on vidabc


Server 11 vidtodo:

Watch Full Movie Warcraft (2016) HQ 1080p Blu-ray x264 Dolby ATMOS 7 1-EN + AC3 F Online on vidtodo


Server 12 wholecloud:

Watch Full Movie Warcraft (2016) HQ 1080p Blu-ray x264 Dolby ATMOS 7 1-EN + AC3 F Online on wholecloud


Server 13 vidgg:

Watch Full Movie Warcraft (2016) HQ 1080p Blu-ray x264 Dolby ATMOS 7 1-EN + AC3 F Online on vidgg


Server 14 auroravid:

Watch Full Movie Warcraft (2016) HQ 1080p Blu-ray x264 Dolby ATMOS 7 1-EN + AC3 F Online on auroravid


Server 15 goodvideohos:

Watch Full Movie Warcraft (2016) HQ 1080p Blu-ray x264 Dolby ATMOS 7 1-EN + AC3 F Online on goodvideohos


Server 16 watchers:

Watch Full Movie Warcraft (2016) HQ 1080p Blu-ray x264 Dolby ATMOS 7 1-EN + AC3 F Online on watchers


Server 17 powvideo:

Watch Full Movie Warcraft (2016) HQ 1080p Blu-ray x264 Dolby ATMOS 7 1-EN + AC3 F Online on powvideo


Server 18 streamplay:

Watch Full Movie Warcraft (2016) HQ 1080p Blu-ray x264 Dolby ATMOS 7 1-EN + AC3 F Online on streamplay


Server 19 vidbull:

Watch Full Movie Warcraft (2016) HQ 1080p Blu-ray x264 Dolby ATMOS 7 1-EN + AC3 F Online on vidbull


Server 20 cloudtime:

Watch Full Movie Warcraft (2016) HQ 1080p Blu-ray x264 Dolby ATMOS 7 1-EN + AC3 F Online on cloudtime


Server 21 vidup:

Watch Full Movie Warcraft (2016) HQ 1080p Blu-ray x264 Dolby ATMOS 7 1-EN + AC3 F Online on vidup


Server 22 vshare:

Watch Full Movie Warcraft (2016) HQ 1080p Blu-ray x264 Dolby ATMOS 7 1-EN + AC3 F Online on vshare


Server 23 vodlock:

Watch Full Movie Warcraft (2016) HQ 1080p Blu-ray x264 Dolby ATMOS 7 1-EN + AC3 F Online on vodlock


Server 24 vidlox:

Watch Full Movie Warcraft (2016) HQ 1080p Blu-ray x264 Dolby ATMOS 7 1-EN + AC3 F Online on vidlox


Server 25 bitvid :

Watch Full Movie Warcraft (2016) HQ 1080p Blu-ray x264 Dolby ATMOS 7 1-EN + AC3 F Online on bitvid



Torrent Warcraft (2016) HQ 1080p Blu-ray x264 Dolby ATMOS 7 1-EN + AC3 F Download:


Warcraft (2016) HQ 1080p Blu-ray x264 Dolby ATMOS 7 1-EN + AC3 F :