The Conjuring-2 (2016)HQ 1080p Blu-ray x264 Dolby ATMOS 7 1 MSubs -DDR

The Conjuring-2 (2016)HQ 1080p Blu-ray x264 Dolby ATMOS 7 1 MSubs -DDR
Size: 13.26 GB
Language:
Category: Movies
Online Views: 68
Uploader: admin

Now Quickly and Easily Watch The Conjuring-2 (2016)HQ 1080p Blu-ray x264 Dolby ATMOS 7 1 MSubs -DDR on your PC, Mobile and all other devices. The Conjuring-2 (2016)HQ 1080p Blu-ray x264 Dolby ATMOS 7 1 MSubs -DDR Watch Links at Bottom. Watch Torrent Movie

Watch Torrent Description



Torrent Description








- HollyWooD Movie-

The Conjuring
- 2 -
** 2016 **
HD 1080p / Blu-ray / x264
English Dolby ATMOS 7.1
English, French, Portugeuse & Spanish Subs

Forced & Hearing Impaired subs included





SOURCE: BD50 @ HDC

File size : 13.2 GiB
Duration : 2 h 13 min
Overall bit rate mode : Variable
Overall bit rate : 14.1 Mb/s

Video
Format : AVC
Format/Info : Advanced Video Codec
Format profile : [email protected]
Format settings, CABAC : Yes
Format settings, ReFrames : 5 frames
Codec ID : V_MPEG4/ISO/AVC
Duration : 2 h 13 min
Bit rate : 10 000 kb/s
Width : 1 920 pixels
Height : 800 pixels
Display aspect ratio : 2.40:1
Frame rate mode : Constant
Frame rate : 23.976 (24000/1001) FPS
color space : YUV
Chroma subsampling : 4:2:0
Bit depth : 8 bits
Scan type : Progressive
Bits/(Pixel*Frame) : 0.272
Stream size : 9.35 GiB (71%)

Audio
Format : Atmos / TrueHD
Codec ID : A_TRUEHD
Duration : 2 h 13 min
Bit rate mode : Variable
Bit rate : 3 987 kb/s
Maximum bit rate : 8 076 kb/s
Channel(s) : Object Based / 8 channels
Channel positions : Object Based / Front: L C R, Side: L R, Back: L R, LFE
Sampling rate : / 48.0 kHz
Frame rate : 1 200.000 FPS (40 spf)
Compression mode : Lossless
Stream size : 3.73 GiB (28%)
Language : English
Default : Yes
Forced : No

Chapters = Yes
Sample : Included
[/B]
A DDR Exclusive Encode

 


Watch Torrent Server Links Here (Total 25)




Server 1 Openload:

Watch Full Movie The Conjuring-2 (2016)HQ 1080p Blu-ray x264 Dolby ATMOS 7 1 MSubs -DDR Online on Openload


Server 2 Vidto:

Watch Full Movie The Conjuring-2 (2016)HQ 1080p Blu-ray x264 Dolby ATMOS 7 1 MSubs -DDR Online on Vidto


Server 3 Streamin:

Watch Full Movie The Conjuring-2 (2016)HQ 1080p Blu-ray x264 Dolby ATMOS 7 1 MSubs -DDR Online on Streamin


Server 4 Nowvideo:

Watch Full Movie The Conjuring-2 (2016)HQ 1080p Blu-ray x264 Dolby ATMOS 7 1 MSubs -DDR Online on Nowvideo


Server 4 Thevideo:

Watch Full Movie The Conjuring-2 (2016)HQ 1080p Blu-ray x264 Dolby ATMOS 7 1 MSubs -DDR Online on Thevideo


Server 5 letwatch:

Watch Full Movie The Conjuring-2 (2016)HQ 1080p Blu-ray x264 Dolby ATMOS 7 1 MSubs -DDR Online on letwatch


Server 6 youwatch:

Watch Full Movie The Conjuring-2 (2016)HQ 1080p Blu-ray x264 Dolby ATMOS 7 1 MSubs -DDR Online on youwatch


Server 7 flashx:

Watch Full Movie The Conjuring-2 (2016)HQ 1080p Blu-ray x264 Dolby ATMOS 7 1 MSubs -DDR Online on flashx


Server 8 rapidvideo:

Watch Full Movie The Conjuring-2 (2016)HQ 1080p Blu-ray x264 Dolby ATMOS 7 1 MSubs -DDR Online on rapidvideo


Server 9 kingfiles:

Watch Full Movie The Conjuring-2 (2016)HQ 1080p Blu-ray x264 Dolby ATMOS 7 1 MSubs -DDR Online on kingfiles


Server 10 vidabc:

Watch Full Movie The Conjuring-2 (2016)HQ 1080p Blu-ray x264 Dolby ATMOS 7 1 MSubs -DDR Online on vidabc


Server 11 vidtodo:

Watch Full Movie The Conjuring-2 (2016)HQ 1080p Blu-ray x264 Dolby ATMOS 7 1 MSubs -DDR Online on vidtodo


Server 12 wholecloud:

Watch Full Movie The Conjuring-2 (2016)HQ 1080p Blu-ray x264 Dolby ATMOS 7 1 MSubs -DDR Online on wholecloud


Server 13 vidgg:

Watch Full Movie The Conjuring-2 (2016)HQ 1080p Blu-ray x264 Dolby ATMOS 7 1 MSubs -DDR Online on vidgg


Server 14 auroravid:

Watch Full Movie The Conjuring-2 (2016)HQ 1080p Blu-ray x264 Dolby ATMOS 7 1 MSubs -DDR Online on auroravid


Server 15 goodvideohos:

Watch Full Movie The Conjuring-2 (2016)HQ 1080p Blu-ray x264 Dolby ATMOS 7 1 MSubs -DDR Online on goodvideohos


Server 16 watchers:

Watch Full Movie The Conjuring-2 (2016)HQ 1080p Blu-ray x264 Dolby ATMOS 7 1 MSubs -DDR Online on watchers


Server 17 powvideo:

Watch Full Movie The Conjuring-2 (2016)HQ 1080p Blu-ray x264 Dolby ATMOS 7 1 MSubs -DDR Online on powvideo


Server 18 streamplay:

Watch Full Movie The Conjuring-2 (2016)HQ 1080p Blu-ray x264 Dolby ATMOS 7 1 MSubs -DDR Online on streamplay


Server 19 vidbull:

Watch Full Movie The Conjuring-2 (2016)HQ 1080p Blu-ray x264 Dolby ATMOS 7 1 MSubs -DDR Online on vidbull


Server 20 cloudtime:

Watch Full Movie The Conjuring-2 (2016)HQ 1080p Blu-ray x264 Dolby ATMOS 7 1 MSubs -DDR Online on cloudtime


Server 21 vidup:

Watch Full Movie The Conjuring-2 (2016)HQ 1080p Blu-ray x264 Dolby ATMOS 7 1 MSubs -DDR Online on vidup


Server 22 vshare:

Watch Full Movie The Conjuring-2 (2016)HQ 1080p Blu-ray x264 Dolby ATMOS 7 1 MSubs -DDR Online on vshare


Server 23 vodlock:

Watch Full Movie The Conjuring-2 (2016)HQ 1080p Blu-ray x264 Dolby ATMOS 7 1 MSubs -DDR Online on vodlock


Server 24 vidlox:

Watch Full Movie The Conjuring-2 (2016)HQ 1080p Blu-ray x264 Dolby ATMOS 7 1 MSubs -DDR Online on vidlox


Server 25 bitvid :

Watch Full Movie The Conjuring-2 (2016)HQ 1080p Blu-ray x264 Dolby ATMOS 7 1 MSubs -DDR Online on bitvid



Torrent The Conjuring-2 (2016)HQ 1080p Blu-ray x264 Dolby ATMOS 7 1 MSubs -DDR Download:


The Conjuring-2 (2016)HQ 1080p Blu-ray x264 Dolby ATMOS 7 1 MSubs -DDR :