Hacksaw Ridge 2016 1080p BluRay x264 Multi Dolby ATMOS 7 1 -DDR

Hacksaw Ridge 2016 1080p BluRay x264 Multi Dolby ATMOS 7 1 -DDR
Size: 15.7 GB
Language: English
Category: Movies
Online Views: 131
Uploader: SaM

Now Quickly and Easily Watch Hacksaw Ridge 2016 1080p BluRay x264 Multi Dolby ATMOS 7 1 -DDR on your PC, Mobile and all other devices. Hacksaw Ridge 2016 1080p BluRay x264 Multi Dolby ATMOS 7 1 -DDR Watch Links at Bottom. Watch Torrent Movie

Watch Torrent Description



Torrent Description







HQ 1080p Blu-Ray Rip x264

English Dolby ATMOS 7.1 Audio

Spanish DDS 5.1 Audio


English & Spanish Subs

SCREENSHOTS


SPECS


Source: Blu-ray @ HDC

Format : Matroska
File size : 15.6 GiB
Duration : 2 h 19 min
Overall bit rate mode : Variable
Overall bit rate : 16.1 Mb/s

Video
Format : AVC
Format profile : [email protected]
Bit rate : 10.0 Mb/s
Width : 1 920 pixels
Height : 800 pixels
Display aspect ratio : 2.40:1
Frame rate : 23.976 (24000/1001) FPS
Bit depth : 8 bits
Stream size : 10.2 GiB (65%)
Color primaries : BT.709

Audio #1
Format : Atmos / TrueHD 7.1
Bit rate : 4 198 kb/s / 5 799 kb/s
Bit depth : 24 bits
Stream size : 4.09 GiB (26%)
Language : English

Audio #3
Format : AC-3
Bit rate : 640 kb/s
Channel(s) : 6 channels
Stream size : 638 MiB (4%)
Language : Spanish

Chapters : YES

SAMPLE Included



A DDR Exclusive Encode





Watch Torrent Server Links Here (Total 25)




Server 1 Openload:

Watch Full Movie Hacksaw Ridge 2016 1080p BluRay x264 Multi Dolby ATMOS 7 1 -DDR Online on Openload


Server 2 Vidto:

Watch Full Movie Hacksaw Ridge 2016 1080p BluRay x264 Multi Dolby ATMOS 7 1 -DDR Online on Vidto


Server 3 Streamin:

Watch Full Movie Hacksaw Ridge 2016 1080p BluRay x264 Multi Dolby ATMOS 7 1 -DDR Online on Streamin


Server 4 Nowvideo:

Watch Full Movie Hacksaw Ridge 2016 1080p BluRay x264 Multi Dolby ATMOS 7 1 -DDR Online on Nowvideo


Server 4 Thevideo:

Watch Full Movie Hacksaw Ridge 2016 1080p BluRay x264 Multi Dolby ATMOS 7 1 -DDR Online on Thevideo


Server 5 letwatch:

Watch Full Movie Hacksaw Ridge 2016 1080p BluRay x264 Multi Dolby ATMOS 7 1 -DDR Online on letwatch


Server 6 youwatch:

Watch Full Movie Hacksaw Ridge 2016 1080p BluRay x264 Multi Dolby ATMOS 7 1 -DDR Online on youwatch


Server 7 flashx:

Watch Full Movie Hacksaw Ridge 2016 1080p BluRay x264 Multi Dolby ATMOS 7 1 -DDR Online on flashx


Server 8 rapidvideo:

Watch Full Movie Hacksaw Ridge 2016 1080p BluRay x264 Multi Dolby ATMOS 7 1 -DDR Online on rapidvideo


Server 9 kingfiles:

Watch Full Movie Hacksaw Ridge 2016 1080p BluRay x264 Multi Dolby ATMOS 7 1 -DDR Online on kingfiles


Server 10 vidabc:

Watch Full Movie Hacksaw Ridge 2016 1080p BluRay x264 Multi Dolby ATMOS 7 1 -DDR Online on vidabc


Server 11 vidtodo:

Watch Full Movie Hacksaw Ridge 2016 1080p BluRay x264 Multi Dolby ATMOS 7 1 -DDR Online on vidtodo


Server 12 wholecloud:

Watch Full Movie Hacksaw Ridge 2016 1080p BluRay x264 Multi Dolby ATMOS 7 1 -DDR Online on wholecloud


Server 13 vidgg:

Watch Full Movie Hacksaw Ridge 2016 1080p BluRay x264 Multi Dolby ATMOS 7 1 -DDR Online on vidgg


Server 14 auroravid:

Watch Full Movie Hacksaw Ridge 2016 1080p BluRay x264 Multi Dolby ATMOS 7 1 -DDR Online on auroravid


Server 15 goodvideohos:

Watch Full Movie Hacksaw Ridge 2016 1080p BluRay x264 Multi Dolby ATMOS 7 1 -DDR Online on goodvideohos


Server 16 watchers:

Watch Full Movie Hacksaw Ridge 2016 1080p BluRay x264 Multi Dolby ATMOS 7 1 -DDR Online on watchers


Server 17 powvideo:

Watch Full Movie Hacksaw Ridge 2016 1080p BluRay x264 Multi Dolby ATMOS 7 1 -DDR Online on powvideo


Server 18 streamplay:

Watch Full Movie Hacksaw Ridge 2016 1080p BluRay x264 Multi Dolby ATMOS 7 1 -DDR Online on streamplay


Server 19 vidbull:

Watch Full Movie Hacksaw Ridge 2016 1080p BluRay x264 Multi Dolby ATMOS 7 1 -DDR Online on vidbull


Server 20 cloudtime:

Watch Full Movie Hacksaw Ridge 2016 1080p BluRay x264 Multi Dolby ATMOS 7 1 -DDR Online on cloudtime


Server 21 vidup:

Watch Full Movie Hacksaw Ridge 2016 1080p BluRay x264 Multi Dolby ATMOS 7 1 -DDR Online on vidup


Server 22 vshare:

Watch Full Movie Hacksaw Ridge 2016 1080p BluRay x264 Multi Dolby ATMOS 7 1 -DDR Online on vshare


Server 23 vodlock:

Watch Full Movie Hacksaw Ridge 2016 1080p BluRay x264 Multi Dolby ATMOS 7 1 -DDR Online on vodlock


Server 24 vidlox:

Watch Full Movie Hacksaw Ridge 2016 1080p BluRay x264 Multi Dolby ATMOS 7 1 -DDR Online on vidlox


Server 25 bitvid :

Watch Full Movie Hacksaw Ridge 2016 1080p BluRay x264 Multi Dolby ATMOS 7 1 -DDR Online on bitvid



Torrent Hacksaw Ridge 2016 1080p BluRay x264 Multi Dolby ATMOS 7 1 -DDR Download:


Hacksaw Ridge 2016 1080p BluRay x264 Multi Dolby ATMOS 7 1 -DDR :