Gravity - Diamond Luxe Edition (2013) Multi 1080p BluRay x264 Dolby ATMOS 7 1 MSubs -DDR

Gravity - Diamond Luxe Edition (2013) Multi 1080p BluRay x264 Dolby ATMOS 7 1 MSubs -DDR
Size: 10.2 GB
Language: English
Category: Movies
Online Views: 36
Uploader: SaM

Now Quickly and Easily Watch Gravity - Diamond Luxe Edition (2013) Multi 1080p BluRay x264 Dolby ATMOS 7 1 MSubs -DDR on your PC, Mobile and all other devices. Gravity - Diamond Luxe Edition (2013) Multi 1080p BluRay x264 Dolby ATMOS 7 1 MSubs -DDR Watch Links at Bottom. Watch Torrent Movie

Watch Torrent Description



Torrent Description






HQ 1080p Blu-Ray Rip x264

English Dolby ATMOS 7.1 Audio
French AC3 5.1 Audio

English French German Italian Spanish Portuguese + Forced subs

SCREENSHOTS


SPECS


Source: Blu-ray

Format                                   : Matroska
File size                                : 10.1 GiB
Duration                                 : 1 h 30 min
Overall bit rate mode                    : Variable
Overall bit rate                         : 15.9 Mb/s

Video
Format                                   : AVC
Format profile                           : [email protected]
Duration                                 : 1 h 30 min
Bit rate                                 : 10.0 Mb/s
Width                                    : 1 920 pixels
Height                                   : 800 pixels
Display aspect ratio                     : 2.40:1
Frame rate mode                          : Constant
Frame rate                               : 23.976 (24000/1001) FPS
Bit depth                                : 8 bits
Bits/(Pixel*Frame)                       : 0.272
Stream size                              : 6.34 GiB (63%)
Color primaries                          : BT.709

Audio #1
Codec ID                                 : A_TRUEHD
Bit rate                                 : 4 950 kb/s
Maximum bit rate                         : 8 823 kb/s
Channel(s)                               : Object Based / 8 channels
Stream size                              : 3.15 GiB (31%)
Language                                 : English

Audio #2
Format                                   : AC-3
Bit rate                                 : 448 kb/s
Channel(s)                               : 6 channels
Bit depth                                : 16 bits
Stream size                              : 292 MiB (3%)
Language                                 : French

Chapters                                 : YES

SAMPLE Included



A DDR Exclusive Encode






Watch Torrent Server Links Here (Total 25)




Server 1 Openload:

Watch Full Movie Gravity - Diamond Luxe Edition (2013) Multi 1080p BluRay x264 Dolby ATMOS 7 1 MSubs -DDR Online on Openload


Server 2 Vidto:

Watch Full Movie Gravity - Diamond Luxe Edition (2013) Multi 1080p BluRay x264 Dolby ATMOS 7 1 MSubs -DDR Online on Vidto


Server 3 Streamin:

Watch Full Movie Gravity - Diamond Luxe Edition (2013) Multi 1080p BluRay x264 Dolby ATMOS 7 1 MSubs -DDR Online on Streamin


Server 4 Nowvideo:

Watch Full Movie Gravity - Diamond Luxe Edition (2013) Multi 1080p BluRay x264 Dolby ATMOS 7 1 MSubs -DDR Online on Nowvideo


Server 4 Thevideo:

Watch Full Movie Gravity - Diamond Luxe Edition (2013) Multi 1080p BluRay x264 Dolby ATMOS 7 1 MSubs -DDR Online on Thevideo


Server 5 letwatch:

Watch Full Movie Gravity - Diamond Luxe Edition (2013) Multi 1080p BluRay x264 Dolby ATMOS 7 1 MSubs -DDR Online on letwatch


Server 6 youwatch:

Watch Full Movie Gravity - Diamond Luxe Edition (2013) Multi 1080p BluRay x264 Dolby ATMOS 7 1 MSubs -DDR Online on youwatch


Server 7 flashx:

Watch Full Movie Gravity - Diamond Luxe Edition (2013) Multi 1080p BluRay x264 Dolby ATMOS 7 1 MSubs -DDR Online on flashx


Server 8 rapidvideo:

Watch Full Movie Gravity - Diamond Luxe Edition (2013) Multi 1080p BluRay x264 Dolby ATMOS 7 1 MSubs -DDR Online on rapidvideo


Server 9 kingfiles:

Watch Full Movie Gravity - Diamond Luxe Edition (2013) Multi 1080p BluRay x264 Dolby ATMOS 7 1 MSubs -DDR Online on kingfiles


Server 10 vidabc:

Watch Full Movie Gravity - Diamond Luxe Edition (2013) Multi 1080p BluRay x264 Dolby ATMOS 7 1 MSubs -DDR Online on vidabc


Server 11 vidtodo:

Watch Full Movie Gravity - Diamond Luxe Edition (2013) Multi 1080p BluRay x264 Dolby ATMOS 7 1 MSubs -DDR Online on vidtodo


Server 12 wholecloud:

Watch Full Movie Gravity - Diamond Luxe Edition (2013) Multi 1080p BluRay x264 Dolby ATMOS 7 1 MSubs -DDR Online on wholecloud


Server 13 vidgg:

Watch Full Movie Gravity - Diamond Luxe Edition (2013) Multi 1080p BluRay x264 Dolby ATMOS 7 1 MSubs -DDR Online on vidgg


Server 14 auroravid:

Watch Full Movie Gravity - Diamond Luxe Edition (2013) Multi 1080p BluRay x264 Dolby ATMOS 7 1 MSubs -DDR Online on auroravid


Server 15 goodvideohos:

Watch Full Movie Gravity - Diamond Luxe Edition (2013) Multi 1080p BluRay x264 Dolby ATMOS 7 1 MSubs -DDR Online on goodvideohos


Server 16 watchers:

Watch Full Movie Gravity - Diamond Luxe Edition (2013) Multi 1080p BluRay x264 Dolby ATMOS 7 1 MSubs -DDR Online on watchers


Server 17 powvideo:

Watch Full Movie Gravity - Diamond Luxe Edition (2013) Multi 1080p BluRay x264 Dolby ATMOS 7 1 MSubs -DDR Online on powvideo


Server 18 streamplay:

Watch Full Movie Gravity - Diamond Luxe Edition (2013) Multi 1080p BluRay x264 Dolby ATMOS 7 1 MSubs -DDR Online on streamplay


Server 19 vidbull:

Watch Full Movie Gravity - Diamond Luxe Edition (2013) Multi 1080p BluRay x264 Dolby ATMOS 7 1 MSubs -DDR Online on vidbull


Server 20 cloudtime:

Watch Full Movie Gravity - Diamond Luxe Edition (2013) Multi 1080p BluRay x264 Dolby ATMOS 7 1 MSubs -DDR Online on cloudtime


Server 21 vidup:

Watch Full Movie Gravity - Diamond Luxe Edition (2013) Multi 1080p BluRay x264 Dolby ATMOS 7 1 MSubs -DDR Online on vidup


Server 22 vshare:

Watch Full Movie Gravity - Diamond Luxe Edition (2013) Multi 1080p BluRay x264 Dolby ATMOS 7 1 MSubs -DDR Online on vshare


Server 23 vodlock:

Watch Full Movie Gravity - Diamond Luxe Edition (2013) Multi 1080p BluRay x264 Dolby ATMOS 7 1 MSubs -DDR Online on vodlock


Server 24 vidlox:

Watch Full Movie Gravity - Diamond Luxe Edition (2013) Multi 1080p BluRay x264 Dolby ATMOS 7 1 MSubs -DDR Online on vidlox


Server 25 bitvid :

Watch Full Movie Gravity - Diamond Luxe Edition (2013) Multi 1080p BluRay x264 Dolby ATMOS 7 1 MSubs -DDR Online on bitvid



Torrent Gravity - Diamond Luxe Edition (2013) Multi 1080p BluRay x264 Dolby ATMOS 7 1 MSubs -DDR Download:


Gravity - Diamond Luxe Edition (2013) Multi 1080p BluRay x264 Dolby ATMOS 7 1 MSubs -DDR :