Befikre (2016) HQ 1080p BluRay x264 Dolby ATMOS 7 1 MSubs -DDR

Befikre (2016) HQ 1080p BluRay x264 Dolby ATMOS 7 1 MSubs -DDR
Size: 17.4 GB
Language: Hindi
Category: Movies
Online Views: 31
Uploader: SaM

Now Quickly and Easily Watch Befikre (2016) HQ 1080p BluRay x264 Dolby ATMOS 7 1 MSubs -DDR on your PC, Mobile and all other devices. Befikre (2016) HQ 1080p BluRay x264 Dolby ATMOS 7 1 MSubs -DDR Watch Links at Bottom. Watch Torrent Movie

Watch Torrent Description



Torrent Description






HQ 1080p Blu-Ray Rip x264

Hindi Dolby ATMOS 7.1 Audio

English + SDH French Arabic Spanish Portuguese
Thai Malay Indonesian Dutch subs


SCREENSHOTS

SPECS


Source: Blu-ray @ DDR

Format : Matroska
File size : 17.4 GiB
Duration : 2 h 10 min
Overall bit rate mode : Variable
Overall bit rate : 19.1 Mb/s

Video
Format : AVC
Format profile : [email protected]
Bit rate : 14.0 Mb/s
Width : 1 920 pixels
Height : 816 pixels
Display aspect ratio : 2.35:1
Frame rate : 24.000 FPS
Bit depth : 8 bits
Stream size : 12.7 GiB (73%)
Color primaries : BT.709

Audio #1
Format : tmos / TrueHD
Bit rate : 4 333 kb/s 7 050 kb/s
Channel(s) : 8 channels
Stream size : 3.94 GiB (23%)
Language : English


Chapters : YES

SAMPLE Included



A DDR Exclusive Encode





Watch Torrent Server Links Here (Total 25)




Server 1 Openload:

Watch Full Movie Befikre (2016) HQ 1080p BluRay x264 Dolby ATMOS 7 1 MSubs -DDR Online on Openload


Server 2 Vidto:

Watch Full Movie Befikre (2016) HQ 1080p BluRay x264 Dolby ATMOS 7 1 MSubs -DDR Online on Vidto


Server 3 Streamin:

Watch Full Movie Befikre (2016) HQ 1080p BluRay x264 Dolby ATMOS 7 1 MSubs -DDR Online on Streamin


Server 4 Nowvideo:

Watch Full Movie Befikre (2016) HQ 1080p BluRay x264 Dolby ATMOS 7 1 MSubs -DDR Online on Nowvideo


Server 4 Thevideo:

Watch Full Movie Befikre (2016) HQ 1080p BluRay x264 Dolby ATMOS 7 1 MSubs -DDR Online on Thevideo


Server 5 letwatch:

Watch Full Movie Befikre (2016) HQ 1080p BluRay x264 Dolby ATMOS 7 1 MSubs -DDR Online on letwatch


Server 6 youwatch:

Watch Full Movie Befikre (2016) HQ 1080p BluRay x264 Dolby ATMOS 7 1 MSubs -DDR Online on youwatch


Server 7 flashx:

Watch Full Movie Befikre (2016) HQ 1080p BluRay x264 Dolby ATMOS 7 1 MSubs -DDR Online on flashx


Server 8 rapidvideo:

Watch Full Movie Befikre (2016) HQ 1080p BluRay x264 Dolby ATMOS 7 1 MSubs -DDR Online on rapidvideo


Server 9 kingfiles:

Watch Full Movie Befikre (2016) HQ 1080p BluRay x264 Dolby ATMOS 7 1 MSubs -DDR Online on kingfiles


Server 10 vidabc:

Watch Full Movie Befikre (2016) HQ 1080p BluRay x264 Dolby ATMOS 7 1 MSubs -DDR Online on vidabc


Server 11 vidtodo:

Watch Full Movie Befikre (2016) HQ 1080p BluRay x264 Dolby ATMOS 7 1 MSubs -DDR Online on vidtodo


Server 12 wholecloud:

Watch Full Movie Befikre (2016) HQ 1080p BluRay x264 Dolby ATMOS 7 1 MSubs -DDR Online on wholecloud


Server 13 vidgg:

Watch Full Movie Befikre (2016) HQ 1080p BluRay x264 Dolby ATMOS 7 1 MSubs -DDR Online on vidgg


Server 14 auroravid:

Watch Full Movie Befikre (2016) HQ 1080p BluRay x264 Dolby ATMOS 7 1 MSubs -DDR Online on auroravid


Server 15 goodvideohos:

Watch Full Movie Befikre (2016) HQ 1080p BluRay x264 Dolby ATMOS 7 1 MSubs -DDR Online on goodvideohos


Server 16 watchers:

Watch Full Movie Befikre (2016) HQ 1080p BluRay x264 Dolby ATMOS 7 1 MSubs -DDR Online on watchers


Server 17 powvideo:

Watch Full Movie Befikre (2016) HQ 1080p BluRay x264 Dolby ATMOS 7 1 MSubs -DDR Online on powvideo


Server 18 streamplay:

Watch Full Movie Befikre (2016) HQ 1080p BluRay x264 Dolby ATMOS 7 1 MSubs -DDR Online on streamplay


Server 19 vidbull:

Watch Full Movie Befikre (2016) HQ 1080p BluRay x264 Dolby ATMOS 7 1 MSubs -DDR Online on vidbull


Server 20 cloudtime:

Watch Full Movie Befikre (2016) HQ 1080p BluRay x264 Dolby ATMOS 7 1 MSubs -DDR Online on cloudtime


Server 21 vidup:

Watch Full Movie Befikre (2016) HQ 1080p BluRay x264 Dolby ATMOS 7 1 MSubs -DDR Online on vidup


Server 22 vshare:

Watch Full Movie Befikre (2016) HQ 1080p BluRay x264 Dolby ATMOS 7 1 MSubs -DDR Online on vshare


Server 23 vodlock:

Watch Full Movie Befikre (2016) HQ 1080p BluRay x264 Dolby ATMOS 7 1 MSubs -DDR Online on vodlock


Server 24 vidlox:

Watch Full Movie Befikre (2016) HQ 1080p BluRay x264 Dolby ATMOS 7 1 MSubs -DDR Online on vidlox


Server 25 bitvid :

Watch Full Movie Befikre (2016) HQ 1080p BluRay x264 Dolby ATMOS 7 1 MSubs -DDR Online on bitvid



Torrent Befikre (2016) HQ 1080p BluRay x264 Dolby ATMOS 7 1 MSubs -DDR Download:


Befikre (2016) HQ 1080p BluRay x264 Dolby ATMOS 7 1 MSubs -DDR :